91听歌网,品味HIFI  享受音乐

您所在的位置:首页 > 说音乐 > 正文

分轨无损音乐刻录成光碟的方法

1、分轨无损音乐是指dts、ape、wav格式单曲文件。

2、按照cue规范来制作一个cue。

新建一个文本文档,打开后写入一下内容:(注意:后面的“ <------”为注释,不要写到cue里)

PERFORMER "艺术家" <------可以不写这行

TITLE "专辑名" <------可以不写这行

FILE "第一个.dts" BINARY <------文件名记得改为你下载的DTS文件名

TRACK 01 AUDIO <------记得修改第n首标号,第一首就是01

INDEX 01 00:00:00 <------完全照抄

FILE "第二个.dts" BINARY <------文件名改下

TRACK 02 AUDIO <------记得修改第n首标号,第二首是02,下同

INDEX 01 00:00:00 <------完全照抄

FILE "第三个.dts" BINARY <------文件名改下

TRACK 03 AUDIO <------记得修改第n首标号

INDEX 01 00:00:00 <------完全照抄

3、曲目多就继续往写,格式雷同,写好后保存,记得跟DTS歌曲保存在一个目录下,将.TXT后缀改为.CUE后缀。

4、接着用Daemon Tools加载修改后的cue,然后重复上面介绍的,用NERO的“复制光盘”搞定。

本文网址:91tingge.com/html/shuoyinyue/640.html
更多>>网友评论
发表评论
还可以输入255个字符 插入表情
var cpro_id = "u2472613";